Mirkochip ha segnalato un messaggio.

Motivo:
Captain America - The Winter Soldier (2014) BDRip 1080p HEVC ITA ENG AC3 ITA ENG Sub PirateMKV
tutto offline

Messaggio: Captain America - The Winter Soldier (2014) BDRip 1080p HEVC ITA ENG AC3 ITA ENG Sub PirateMKV
Forum: HEVC 1080p x265
Moderatori Assegnati: @N/D

Scritto da: PirateMKV
Contenuto Originale:





Titolo: Captain America: The Winter Soldier
Nazione: USA
Anno: 2014
Genere: Action, Adventure, Sci-Fi
Durata: 136 min
Regia: Anthony Russo, Joe Russo
Cast: Chris Evans, Samuel L. Jackson, Scarlett Johansson, Robert Redford


Ambientatosi nei nostri giorni Steve Rogers continua a servire gli Stati Uniti attraverso lo S.H.I.E.L.D., nonostante non sia contento della poca trasparenza e delle scarse informazioni che riceve su quel che fa. Quando anche Nick Fury comincia a scoprire che ci sono dati ed elementi che sono preclusi anche a lui evidente che tutta la struttura serve un doppio fine. Se non bastassero le intuizioni arrivano diversi attacchi (a Fury in primis) a scoprire le carte e mostrare chi sia la talpa dentro l'organizzazione.

Nome Versione: PirateMKV
Fonte Video: BluRay
Fonte Audio: BluRay



 






 

General
Unique ID : 187530963343366390172572983200354479679 (0x8D1526580011307BB098923EBC552E3F)
Complete name : D:\Downloads\Captain America Winter Soldier\Captain America - The Winter Soldier (2014) BDRip 1080p HEVC ITA ENG AC3 ITA ENG Sub PirateMKV.mkv
Format : Matroska
Format version : Version 4 / Version 2
File size : 6.50 GiB
Duration : 2h 15mn
Overall bit rate : 6 844 Kbps
Movie name : Captain America - The Winter Soldier (2014) - PirateMKV
Encoded date : UTC 2016-04-01 17:05:44
Writing application : mkvmerge v9.0.1 ('Obstacles') 64bit
Writing library : libebml v1.3.3 libmatroska v1.4.4 / Lavf57.29.101

Video
ID : 1
Format : HEVC
Format/Info : High Efficiency Video Coding
Format profile : Main@L4@Main
Codec ID : V_MPEGH/ISO/HEVC
Duration : 2h 15mn
Bit rate : 5 562 Kbps
Width : 1 920 pixels
Height : 800 pixels
Display aspect ratio : 2.40:1
Frame rate mode : Constant
Frame rate : 23.976 (24000/1001) fps
Color space : YUV
Chroma subsampling : 4:2:0
Bit depth : 8 bits
Bits/(Pixel*Frame) : 0.151
Stream size : 5.28 GiB (81%)
Writing library : x265 1.9:[Windows][GCC 5.2.0][64 bit] 8bit
Encoding settings : wpp / ctu=64 / min-cu-size=8 / max-tu-size=32 / tu-intra-depth=3 / tu-inter-depth=3 / me=2 / subme=4 / merange=57 / no-rect / no-amp / max-merge=3 / temporal-mvp / no-early-skip / rdpenalty=0 / no-tskip / no-tskip-fast / strong-intra-smoothing / no-lossless / no-cu-lossless / no-constrained-intra / fast-intra / open-gop / no-temporal-layers / interlace=0 / keyint=250 / min-keyint=23 / scenecut=40 / rc-lookahead=40 / lookahead-slices=0 / bframes=8 / bframe-bias=0 / b-adapt=2 / ref=5 / limit-refs=1 / limit-modes / weightp / weightb / aq-mode=1 / qg-size=32 / aq-strength=2.00 / cbqpoffs=0 / crqpoffs=0 / rd=4 / psy-rd=1.00 / rdoq-level=0 / psy-rdoq=0.00 / signhide / deblock=-1:-1 / sao / no-sao-non-deblock / b-pyramid / no-cutree / no-intra-refresh / rc=crf / crf=21.5 / qcomp=0.60 / qpmin=0 / qpmax=51 / qpstep=4 / vbv-maxrate=12000 / vbv-bufsize=12000 / crf-max=0.0 / ipratio=1.40 / pbratio=1.30
Default : Yes
Forced : No
Color range : Limited
Matrix coefficients : BT.709

Audio #1
ID : 2
Format : AC-3
Format/Info : Audio Coding 3
Mode extension : CM (complete main)
Format settings, Endianness : Big
Codec ID : A_AC3
Duration : 2h 15mn
Bit rate mode : Constant
Bit rate : 640 Kbps
Channel(s) : 6 channels
Channel positions : Front: L C R, Side: L R, LFE
Sampling rate : 48.0 KHz
Frame rate : 31.250 fps (1536 spf)
Compression mode : Lossy
Stream size : 622 MiB (9%)
Title : AC3 5.1
Language : Italian
Default : Yes
Forced : No

Audio #2
ID : 3
Format : AC-3
Format/Info : Audio Coding 3
Mode extension : CM (complete main)
Format settings, Endianness : Big
Codec ID : A_AC3
Duration : 2h 15mn
Bit rate mode : Constant
Bit rate : 640 Kbps
Channel(s) : 6 channels
Channel positions : Front: L C R, Side: L R, LFE
Sampling rate : 48.0 KHz
Frame rate : 31.250 fps (1536 spf)
Compression mode : Lossy
Stream size : 622 MiB (9%)
Title : AC3 5.1
Language : English
Default : No
Forced : No

Text #1
ID : 4
Format : UTF-8
Codec ID : S_TEXT/UTF8
Codec ID/Info : UTF-8 Plain Text
Duration : 2h 12mn
Bit rate : 0 bps
Count of elements : 36
Stream size : 935 Bytes (0%)
Title : Forced
Language : Italian
Default : Yes
Forced : Yes

Text #2
ID : 5
Format : UTF-8
Codec ID : S_TEXT/UTF8
Codec ID/Info : UTF-8 Plain Text
Duration : 1h 12mn
Bit rate : 1 bps
Count of elements : 28
Stream size : 767 Bytes (0%)
Title : Forced
Language : English
Default : No
Forced : No

Text #3
ID : 6
Format : UTF-8
Codec ID : S_TEXT/UTF8
Codec ID/Info : UTF-8 Plain Text
Duration : 2h 14mn
Bit rate : 50 bps
Count of elements : 1538
Stream size : 50.3 KiB (0%)
Title : Normal
Language : Italian
Default : No
Forced : No

Text #4
ID : 7
Format : UTF-8
Codec ID : S_TEXT/UTF8
Codec ID/Info : UTF-8 Plain Text
Duration : 2h 8mn
Bit rate : 53 bps
Count of elements : 1650
Stream size : 50.7 KiB (0%)
Title : SDH
Language : English
Default : No
Forced : No

Menu
00:00:00.000 : en:00:00:00.000
00:03:28.667 : en:00:03:28.667
00:13:31.728 : en:00:13:31.728
00:17:57.868 : en:00:17:57.868
00:22:25.302 : en:00:22:25.302
00:33:20.415 : en:00:33:20.415
00:41:27.276 : en:00:41:27.276
00:51:37.303 : en:00:51:37.303
00:58:23.959 : en:00:58:23.959
01:07:40.348 : en:01:07:40.348
01:16:22.203 : en:01:16:22.203
01:24:43.078 : en:01:24:43.078
01:32:17.699 : en:01:32:17.699
01:37:06.612 : en:01:37:06.612
01:49:13.088 : en:01:49:13.088
01:55:03.730 : en:01:55:03.730
02:01:11.055 : en:02:01:11.055
02:06:22.241 : en:02:06:22.241






** Contenuto Nascosto: Schiaccia il bottone RINGRAZIA per visualizzare i link **




** Contenuto Nascosto: Schiaccia il bottone RINGRAZIA per visualizzare i link **


Password: W9uf3209bh0Ped970N