marcofe ha segnalato un messaggio.

Motivo:
tutti i link di 1992 e 1993 sono off, si possono ripristinare? grazie

Messaggio: 1992 - Stagione 1 (2015) BDRip 1080p HEVC ITA DTS AC3 PirateMKV
Forum: HEVC 1080p x265
Moderatori Assegnati: @N/D

Scritto da: PirateMKV
Contenuto Originale:





Titolo: 1992
Nazione: Italy
Anno: 2015
Genere: Drama
Durata: N/A min
Regia: N/A
Voti: IMDb (7.3/10)
Cast: Stefano Accorsi, Guido Caprino, Miriam Leone, Domenico Diele


1992. Martin ha diciassette anni e riprende la sua vita attraverso una macchina fotografica. Riprende tutto, la sua stanza, i suoi amici. Tutto tranne suo padre. Un giorno incontra Dominique e la sua vita cambia radicalmente.

Nome Versione: PirateMKV
Fonte Video: BluRay
Fonte Audio: BluRay
Tracce Audio: ITA DTS AC3
Tracce Sub: ENG ITA



 






 

General
Unique ID : 177487402564159051166256464645527478286 (0x8586D490D55AE615A9F9CDDB01D4A00E)
Complete name : C:\Users\Administrator\Downloads\1992\1992 - S01E01 - Episodio 1 (2015) BDRip 1080p HEVC ITA DTS AC3 PirateMKV.mkv
Format : Matroska
Format version : Version 4 / Version 2
File size : 3.40 GiB
Duration : 54 min 34 s
Overall bit rate : 8 909 kb/s
Movie name : 1992 - S01E01 - Episodio 1 (2015) - PirateMKV
Encoded date : UTC 2017-06-03 20:04:07
Writing application : mkvmerge v11.0.0 ('Alive') 64bit
Writing library : libebml v1.3.4 + libmatroska v1.4.5 / Lavf57.72.101
Copyright : Encoded by PirateMKV

Video
ID : 1
Format : HEVC
Format/Info : High Efficiency Video Coding
Format profile : Main@L4@High
Codec ID : V_MPEGH/ISO/HEVC
Duration : 54 min 34 s
Bit rate : 6 761 kb/s
Width : 1 920 pixels
Height : 816 pixels
Display aspect ratio : 2.35:1
Frame rate mode : Constant
Frame rate : 25.000 FPS
Color space : YUV
Chroma subsampling : 4:2:0
Bit depth : 8 bits
Bits/(Pixel*Frame) : 0.173
Stream size : 2.58 GiB (76%)
Writing library : x265 2.4:[Windows][GCC 6.3.0][64 bit] 8bit
Encoding settings : cpuid=1173503 / frame-threads=3 / numa-pools=8 / wpp / no-pmode / no-pme / no-psnr / no-ssim / log-level=2 / input-csp=1 / input-res=1920x816 / interlace=0 / total-frames=0 / level-idc=40 / high-tier=1 / uhd-bd=0 / ref=5 / no-allow-non-conformance / no-repeat-headers / annexb / no-aud / no-hrd / info / hash=0 / no-temporal-layers / open-gop / min-keyint=25 / keyint=250 / bframes=8 / b-adapt=2 / b-pyramid / bframe-bias=0 / rc-lookahead=40 / lookahead-slices=0 / scenecut=40 / no-intra-refresh / ctu=64 / min-cu-size=8 / no-rect / no-amp / max-tu-size=32 / tu-inter-depth=3 / tu-intra-depth=3 / limit-tu=4 / rdoq-level=0 / dynamic-rd=0.00 / no-ssim-rd / signhide / no-tskip / nr-intra=0 / nr-inter=0 / no-constrained-intra / strong-intra-smoothing / max-merge=3 / limit-refs=3 / limit-modes / me=2 / subme=4 / merange=57 / temporal-mvp / weightp / weightb / no-analyze-src-pics / deblock=-1:-1 / sao / no-sao-non-deblock / rd=4 / no-early-skip / rskip / fast-intra / no-tskip-fast / no-cu-lossless / b-intra / rdpenalty=0 / psy-rd=1.00 / psy-rdoq=0.00 / no-rd-refine / analysis-mode=0 / no-lossless / cbqpoffs=0 / crqpoffs=0 / rc=crf / crf=22.5 / qcomp=0.60 / qpstep=4 / stats-write=0 / stats-read=0 / vbv-maxrate=30000 / vbv-bufsize=30000 / vbv-init=0.9 / crf-max=0.0 / crf-min=0.0 / ipratio=1.40 / pbratio=1.30 / aq-mode=3 / aq-strength=2.00 / no-cutree / zone-count=0 / no-strict-cbr / qg-size=32 / no-rc-grain / qpmax=69 / qpmin=0 / sar=1 / overscan=0 / videoformat=5 / range=0 / colorprim=2 / transfer=2 / colormatrix=1 / chromaloc=0 / display-window=0 / max-cll=0,0 / min-luma=0 / max-luma=255 / log2-max-poc-lsb=8 / vui-timing-info / vui-hrd-info / slices=1 / opt-qp-pps / opt-ref-list-length-pps / no-multi-pass-opt-rps / scenecut-bias=0.05 / no-opt-cu-delta-qp / no-aq-motion / no-hdr / no-hdr-opt / no-dhdr10-opt / refine-level=5 / no-limit-sao
Language : English
Default : Yes
Forced : No
Color range : Limited
Matrix coefficients : BT.709

Audio #1
ID : 2
Format : DTS
Format/Info : Digital Theater Systems
Mode : 16
Format settings, Endianness : Big
Codec ID : A_DTS
Duration : 54 min 28 s
Bit rate mode : Constant
Bit rate : 1 509 kb/s
Channel(s) : 6 channels
Channel positions : Front: L C R, Side: L R, LFE
Sampling rate : 48.0 kHz
Frame rate : 93.750 FPS (512 spf)
Bit depth : 24 bits
Compression mode : Lossy
Stream size : 588 MiB (17%)
Title : DTS 5.1
Language : Italian
Default : Yes
Forced : No

Audio #2
ID : 3
Format : AC-3
Format/Info : Audio Coding 3
Format settings, Endianness : Big
Codec ID : A_AC3
Duration : 54 min 28 s
Bit rate mode : Constant
Bit rate : 640 kb/s
Channel(s) : 6 channels
Channel positions : Front: L C R, Side: L R, LFE
Sampling rate : 48.0 kHz
Frame rate : 31.250 FPS (1536 spf)
Bit depth : 16 bits
Compression mode : Lossy
Stream size : 249 MiB (7%)
Title : AC3 5.1
Language : Italian
Service kind : Complete Main
Default : No
Forced : No

Text #1
ID : 4
Format : UTF-8
Codec ID : S_TEXT/UTF8
Codec ID/Info : UTF-8 Plain Text
Duration : 51 min 50 s
Bit rate : 48 b/s
Count of elements : 567
Stream size : 18.5 KiB (0%)
Title : Normal
Language : English
Default : No
Forced : No

Text #2
ID : 5
Format : UTF-8
Codec ID : S_TEXT/UTF8
Codec ID/Info : UTF-8 Plain Text
Duration : 51 min 54 s
Bit rate : 66 b/s
Count of elements : 692
Stream size : 25.2 KiB (0%)
Title : SDH
Language : Italian
Default : No
Forced : No

Menu
00:00:00.000 : en:00:00:00.000
00:05:14.880 : en:00:05:14.880
00:19:23.520 : en:00:19:23.520
00:32:58.560 : en:00:32:58.560






** Contenuto Nascosto: Schiaccia il bottone RINGRAZIA per visualizzare i link **


Password Archivi: pmkv